<img src="//counter.rambler.ru/top100.cnt?1633246" alt="" width="1" height="1" border="0"/>
Ваш логин:Гость
Ваше имя:Гость
Ваша група:Гости
Ваш IP адрес:44.201.97.0
У вас нет непрочитанных сообщений
Форма входа
Логин:
Пароль:
Menu







Search

Поиск по названиям

Контекстный поиск

Catalog Categories
MP3 320 kbps [3327] MP3 < 320 kbps [475]
Lossless [62]
Мини-чат
Форма входа
Логин:
Пароль:

Каталог Альбомов
Главная » Файлы » » Lossless[ Добавить альбом ]

Psychopath - Making The Transition (1991)


Если ссылка "мертва", то сообщите об этом в ЛС

14.04.2009, 17:59


Жанр: Thrash/Death Metal

Исполнитель: Psychopath

Альбом: Making The Transition

Год: 1991

Страна: USA

Формат/Битрейт: lossless | WavPack , CUE (+ image)

Плейлист:

1. The Reality Serum
2. Spirit Pulling Me
3. Altered Minds
4. Unearthly Horror
5. Physics
6. Metro Shock
7. Overcast in Essence
8. A Dark Reaction
9. Without A Clue
10. Broterhood Has Vanished
11. Performing A self-Discovery
12. Crystal Clear 

Code
Exact Audio Copy V0.99 prebeta 4 from 23. January 2008

EAC extraction logfile from 5. March 2009, 18:24

Psychopath / Making the Transition

Used drive : PLEXTOR CD-R PREMIUM2 Adapter: 0 ID: 1

Read mode : Secure
Utilize accurate stream : Yes
Defeat audio cache : Yes
Make use of C2 pointers : No

Read offset correction : 30
Overread into Lead-In and Lead-Out : No
Fill up missing offset samples with silence : Yes
Delete leading and trailing silent blocks : No
Null samples used in CRC calculations : Yes
Used interface : Installed external ASPI interface

Used output format : Internal WAV Routines
Sample format : 44.100 Hz; 16 Bit; Stereo

TOC of the extracted CD

  Track | Start | Length | Start sector | End sector  
  ---------------------------------------------------------
  1 | 0:00.00 | 2:58.35 | 0 | 13384  
  2 | 2:58.35 | 2:41.07 | 13385 | 25466  
  3 | 5:39.42 | 2:49.65 | 25467 | 38206  
  4 | 8:29.32 | 3:58.55 | 38207 | 56111  
  5 | 12:28.12 | 4:01.08 | 56112 | 74194  
  6 | 16:29.20 | 5:05.55 | 74195 | 97124  
  7 | 21:35.00 | 4:04.30 | 97125 | 115454  
  8 | 25:39.30 | 2:54.55 | 115455 | 128559  
  9 | 28:34.10 | 4:14.30 | 128560 | 147639  
  10 | 32:48.40 | 5:18.30 | 147640 | 171519  
  11 | 38:06.70 | 6:07.15 | 171520 | 199059  
  12 | 44:14.10 | 5:20.72 | 199060 | 223131  

Range status and errors

Selected range

  Filename E:\RIPPATI\Psychopath - Making the Transition.wav

  Peak level 93.4 %
  Range quality 100.0 %
  Copy CRC B40239FD
  Copy OK

No errors occurred

   
AccurateRip summary
   
Track 1 not present in database
Track 2 not present in database
Track 3 not present in database
Track 4 not present in database
Track 5 not present in database
Track 6 not present in database
Track 7 not present in database
Track 8 not present in database
Track 9 not present in database
Track 10 not present in database
Track 11 not present in database
Track 12 not present in database
   
None of the tracks are present in the AccurateRip database

End of status report


Категория: Lossless | Добавил: АНО | (e-mail отправителя)
Просмотров: 1971 | Комментарии: 1 | Рейтинг: 5.0/3 | |
1 guagcore  
0
file deleted

Copyright Thrash Metal Attack © 2024
Rambler's Top100