<img src="http://counter.rambler.ru/top100.cnt?1633246" alt="" width="1" height="1" border="0"/>
Ваш логин:Гость
Ваше имя:Гость
Ваша група:Гости
Ваш IP адрес:54.198.78.121
У вас нет непрочитанных сообщений
Форма входа
Логин:
Пароль:
Menu







Search

Поиск по названиям

Контекстный поиск

Catalog Categories
MP3 320 kbps [1471]MP3 < 320 kbps [284]
Lossless [61]
Мини-чат
Форма входа
Логин:
Пароль:

Каталог Альбомов
Главная » Файлы » » Lossless[ Добавить альбом ]

Acid Drinkers - 1998 - High Proof Cosmic Milk


Если ссылка "мертва", то сообщите об этом в ЛС

18.05.2010, 18:24

Жанр: Crossover/Thrash Metal

Исполнитель: Acid Drinkers

Альбом: High Proof Cosmic Milk

Год: 1998

Страна: Poland

Формат/Битрейт: Lossless/CD-Image (ape + cue)

Плейлист:
01. Rattlesnake Blues [4:07]
02. Human Bazooka [4:34]
03. High Proof Cosmic Milk [5:09]
04. What's Happenin' In The Heart Of A Pacifist [3:53]
05. More Life [4:29]
06. Be My Godzilla [3:37]
07. Dementia Blvd [5:59]
08. Blind Leadin' The Blind [4:01]
09. Gain On Shit [3:57]
10. Proud Mary [5:03]
11. Sad Like A Coal Check [3:41]
12. Blind Leadin' The Blind (Demo Version) [3:19]

Code
Exact Audio Copy V0.99 prebeta 5 from 4. May 2009
EAC extraction logfile from 19. August 2009, 15:02
Acid Drinkers / High Proof Cosmic Milk
Used drive : HL-DT-STDVD-RAM GH15L Adapter: 0 ID: 1
Read mode : Secure
Utilize accurate stream : Yes
Defeat audio cache : Yes
Make use of C2 pointers : No
Read offset correction : 667
Overread into Lead-In and Lead-Out : No
Fill up missing offset samples with silence : Yes
Delete leading and trailing silent blocks : No
Null samples used in CRC calculations : No
Used interface : Native Win32 interface for Win NT & 2000
Used output format : Monkey's Audio Lossless Encoder
Selected bitrate : High Lossless Compression
Quality : High
Add ID3 tag : Yes
Command line compressor : C:\Program Files\Exact Audio Copy\MAC.EXE
TOC of the extracted CD
Track | Start | Length | Start sector | End sector
---------------------------------------------------------
1 | 0:00.00 | 4:07.47 | 0 | 18571
2 | 4:07.47 | 4:34.29 | 18572 | 39150
3 | 8:42.01 | 5:09.73 | 39151 | 62398
4 | 13:51.74 | 3:53.55 | 62399 | 79928
5 | 17:45.54 | 4:29.27 | 79929 | 100130
6 | 22:15.06 | 3:37.53 | 100131 | 116458
7 | 25:52.59 | 5:59.46 | 116459 | 143429
8 | 31:52.30 | 4:01.21 | 143430 | 161525
9 | 35:53.51 | 3:57.29 | 161526 | 179329
10 | 39:51.05 | 5:03.28 | 179330 | 202082
11 | 44:54.33 | 3:41.49 | 202083 | 218706
12 | 48:36.07 | 3:19.70 | 218707 | 233701
Range status and errors
Selected range
Filename C:\Documents and Settings\Administrator\Pulpit\ACID DRINKERS [1998] [CD] High Proof Cosmic Milk (Limited Edition)\Acid Drinkers - High Proof Cosmic Milk.wav
Peak level 98.8 %
Range quality 100.0 %
Copy CRC 79196B2E
Copy OK
No errors occurred
End of status report
Категория: Lossless | Добавил: phant0m | (e-mail отправителя)
Просмотров: 1177 | Комментарии: 0 | Рейтинг: 0.0/0 | |
Copyright Thrash Metal Attack © 2018
Rambler's Top100