<img src="http://counter.rambler.ru/top100.cnt?1633246" alt="" width="1" height="1" border="0"/>
Ваш логин:Гость
Ваше имя:Гость
Ваша група:Гости
Ваш IP адрес:54.167.83.233
У вас нет непрочитанных сообщений
Форма входа
Логин:
Пароль:
Menu







Search

Поиск по названиям

Контекстный поиск

Catalog Categories
MP3 320 kbps [1461]MP3 < 320 kbps [281]
Lossless [61]
Мини-чат
Форма входа
Логин:
Пароль:

Каталог Альбомов
Главная » Файлы » » Lossless[ Добавить альбом ]

Acid Drinkers - 1998 - Varran Back Strikes - Alive!!!


Если ссылка "мертва", то сообщите об этом в ЛС

14.09.2010, 20:24

Жанр: Thrash Metal

Исполнитель: Acid Drinkers

Альбом: Varran Back Strikes - Alive!!!

Год: 1998

Страна: Poland

Формат/Битрейт: lossless/ape+cue

Плейлист:
1. Zero 05:10
2. The Joker 02:51
3. High Proof Cosmic Milk 05:24
4. Poplin Twist 03:46
5. United Suscide Legion 07:04
6. Street Rockin' 04:05
7. Slow and Stoned (Method of Yonash) 05:20
8. Barmy Army 03:16
9. Floded with Wine 03:12
10. Pizza Driver 04:33
11. I Fuck the Violence 04:01
12. Always Look on the Bright Side of Life 02:58
13. Wild Thing (The Troggs cover) 03:31
14. Proud Mary (Creedance Clearwater Revival cover) 07:09

Code
Exact Audio Copy V0.99 prebeta 5 from 4. May 2009
EAC extraction logfile from 19. August 2009, 15:23
Acid Drinkers / Varran Strikes Back - Alive!!!
Used drive : HL-DT-STDVD-RAM GH15L Adapter: 0 ID: 1
Read mode : Secure
Utilize accurate stream : Yes
Defeat audio cache : Yes
Make use of C2 pointers : No
Read offset correction : 667
Overread into Lead-In and Lead-Out : No
Fill up missing offset samples with silence : Yes
Delete leading and trailing silent blocks : No
Null samples used in CRC calculations : No
Used interface : Native Win32 interface for Win NT & 2000
Used output format : Monkey's Audio Lossless Encoder
Selected bitrate : High Lossless Compression
Quality : High
Add ID3 tag : Yes
Command line compressor : C:\Program Files\Exact Audio Copy\MAC.EXE
TOC of the extracted CD
Track | Start | Length | Start sector | End sector
---------------------------------------------------------
1 | 0:00.00 | 5:10.65 | 0 | 23314
2 | 5:10.65 | 2:51.53 | 23315 | 36192
3 | 8:02.43 | 5:24.53 | 36193 | 60545
4 | 13:27.21 | 3:46.34 | 60546 | 77529
5 | 17:13.55 | 7:04.24 | 77530 | 109353
6 | 24:18.04 | 4:05.65 | 109354 | 127793
7 | 28:23.69 | 5:20.59 | 127794 | 151852
8 | 33:44.53 | 3:16.26 | 151853 | 166578
9 | 37:01.04 | 3:12.32 | 166579 | 181010
10 | 40:13.36 | 4:33.08 | 181011 | 201493
11 | 44:46.44 | 4:01.64 | 201494 | 219632
12 | 48:48.33 | 2:58.65 | 219633 | 233047
13 | 51:47.23 | 3:31.23 | 233048 | 248895
14 | 55:18.46 | 7:09.46 | 248896 | 281116
Range status and errors
Selected range
Filename C:\Documents and Settings\Administrator\Pulpit\ACID DRINKERS [1998] [CD] Varran Strikes Back... Alive !!!\Acid Drinkers - Varran Strikes Back - Alive!!!.wav
Peak level 96.1 %
Range quality 100.0 %
Copy CRC 84ACA288
Copy OK
No errors occurred
End of status report
Категория: Lossless | Добавил: phant0m | (e-mail отправителя)
Просмотров: 1168 | Комментарии: 0 | Рейтинг: 0.0/0 | |
Copyright Thrash Metal Attack © 2018
Rambler's Top100