<img src="http://counter.rambler.ru/top100.cnt?1633246" alt="" width="1" height="1" border="0"/>
Ваш логин:Гость
Ваше имя:Гость
Ваша група:Гости
Ваш IP адрес:54.221.9.6
У вас нет непрочитанных сообщений
Форма входа
Логин:
Пароль:
Menu







Search

Поиск по названиям

Контекстный поиск

Catalog Categories
MP3 320 kbps [1655]MP3 < 320 kbps [316]
Lossless [61]
Мини-чат
Форма входа
Логин:
Пароль:

Каталог Альбомов
Главная » Файлы » » Lossless[ Добавить альбом ]

Crucifier - Cursed Cross (2006)


Если ссылка "мертва", то сообщите об этом в ЛС

05.09.2010, 10:38

Жанр: Thrash metal

Испонитель: Crucifier

Альбом: Cursed Cross

Год: 2006

Страна: Greece

Формат/Битрейт: Lossless| Flac+cue

Плейлист:
01 - Cursed cross
02 - Realize life
03 - Governmental slavery
04 - Drive intense
05 - T.V. (truth's vileness)
06 - Slaves of seeded hatred
07 - Thrash till the death
08 - Crucifier
09 - Execute them all (bonus track)

Code
Exact Audio Copy V0.99 prebeta 5 from 4. May 2009

EAC extraction logfile from 15. July 2010, 19:57

Crucifier / Cursed Cross

Used drive : TSSTcorpCDDVDW SH-S203D Adapter: 1 ID: 1

Read mode : Secure
Utilize accurate stream : Yes
Defeat audio cache : Yes
Make use of C2 pointers : No

Read offset correction : 6
Overread into Lead-In and Lead-Out : No
Fill up missing offset samples with silence : Yes
Delete leading and trailing silent blocks : No
Null samples used in CRC calculations : Yes
Used interface : Native Win32 interface for Win NT & 2000

Used output format : Internal WAV Routines
Sample format : 44.100 Hz; 16 Bit; Stereo

TOC of the extracted CD

  Track | Start | Length | Start sector | End sector  
  ---------------------------------------------------------
  1 | 0:00.00 | 5:07.02 | 0 | 23026  
  2 | 5:07.02 | 3:44.01 | 23027 | 39827  
  3 | 8:51.03 | 4:08.38 | 39828 | 58465  
  4 | 12:59.41 | 3:21.04 | 58466 | 73544  
  5 | 16:20.45 | 3:37.38 | 73545 | 89857  
  6 | 19:58.08 | 4:44.74 | 89858 | 111231  
  7 | 24:43.07 | 3:36.00 | 111232 | 127431  
  8 | 28:19.07 | 4:03.01 | 127432 | 145657  
  9 | 32:22.08 | 2:58.37 | 145658 | 159044  

Range status and errors

Selected range

  Filename D:\На телефон\НОВОЕ\Crucifier - Cursed Cross.wav

  Peak level 100.0 %
  Range quality 100.0 %
  Copy CRC 397525CA
  Copy OK

No errors occurred

   
AccurateRip summary
   
Track 1 accurately ripped (confidence 1) [4522A7F1]
Track 2 accurately ripped (confidence 1) [D912176F]
Track 3 accurately ripped (confidence 1) [0AB11312]
Track 4 accurately ripped (confidence 1) [DFB29622]
Track 5 accurately ripped (confidence 1) [6C1538CB]
Track 6 accurately ripped (confidence 1) [C1C1E072]
Track 7 accurately ripped (confidence 1) [0D8727CE]
Track 8 accurately ripped (confidence 1) [60FFCA85]
Track 9 accurately ripped (confidence 1) [A9E36A13]
   
All tracks accurately ripped

End of status report
Категория: Lossless | Добавил: 4ereppaha | (e-mail отправителя)
Просмотров: 1461 | Комментарии: 4 | Рейтинг: 5.0/1 | |
4 chest86  
Зачетный альбом! Очень на Razor похоже местами. Драйв, скорость, агрессия. Эталон олд скула. Обязательно к прослушиванию!

3 Cherkesss  
Отличная новость!!!

2 Monster  
Спасибо

1 4ereppaha  
Благодарствую Костян!

Copyright Thrash Metal Attack © 2018
Rambler's Top100