<img src="http://counter.rambler.ru/top100.cnt?1633246" alt="" width="1" height="1" border="0"/>
Ваш логин:Гость
Ваше имя:Гость
Ваша група:Гости
Ваш IP адрес:54.167.83.233
У вас нет непрочитанных сообщений
Форма входа
Логин:
Пароль:
Menu







Search

Поиск по названиям

Контекстный поиск

Catalog Categories
MP3 320 kbps [1461]MP3 < 320 kbps [281]
Lossless [61]
Мини-чат
Форма входа
Логин:
Пароль:

Каталог Альбомов
Главная » Файлы » » Lossless[ Добавить альбом ]

Master Fury - Circles Of Hell [Compilation] (2013)


Если ссылка "мертва", то сообщите об этом в ЛС

01.04.2014, 06:37


Жанр: Thrash/Speed Metal

Исполнитель: Master Fury

Альбом: Circles Of Hell [Compilation]

Год: 2013

Страна: USA

Формат/Битрейт: Lossless| Flac+cue [CD-RIP]

Плейлист:

Hell Party - Tape, LP 1988:
1. Hell Party
2. Crash
3. Are All Men Blind
4. Time Is Right
5. Semper Furious
6. Flat Against The Wall
7. Road Hog
8. Riot

Circles Of Hate - LP 1989:
9. Die In Your Sleep
10. Lies
11. Circus Of Hate
12. Son Of Man
13. Corporate War
14. The Way
15. Life's A Bitch
16. V.O.H.

Код
Exact Audio Copy V1.0 beta 3 from 29. August 2011

Отчёт EAC об извлечении, выполненном 16. марта 2014, 14:28

  Master Fury / Circles Of Hell [Compilaton]

Дисковод: TSSTcorpCDDVDW SH-S223C Adapter: 5 ID: 0

Режим чтения : Достоверность
Использование точного потока : Да
Отключение кэша аудио : Да
Использование указателей C2 : Нет

Коррекция смещения при чтении : 697
Способность читать области Lead-in и Lead-out : Нет
Заполнение пропущенных сэмплов тишиной : Да
Удаление блоков с тишиной в начале и конце : Нет
При вычислениях CRC использовались нулевые сэмплы : Да
Интерфейс : Встроенный Win32-интерфейс для Win NT/2000

Выходной формат : Пользовательский кодировщик
Выбранный битрейт : 1024 kBit/s
Качество : Высокий
Добавление ID3-тега : Нет
Утилита сжатия : C:\Program Files (x86)\FLAC\flac.exe
Дополнительные параметры : -V -8 -T "Date=%year%" -T "Genre=%genre%" %source%

TOC извлечённого CD

  Трек | Старт | Длительность | Начальный сектор | Конечный сектор  
  ---------------------------------------------------------------------
  1 | 0:00.00 | 3:09.26 | 0 | 14200  
  2 | 3:09.26 | 2:47.22 | 14201 | 26747  
  3 | 5:56.48 | 2:49.46 | 26748 | 39468  
  4 | 8:46.19 | 3:39.00 | 39469 | 55893  
  5 | 12:25.19 | 2:55.03 | 55894 | 69021  
  6 | 15:20.22 | 3:46.41 | 69022 | 86012  
  7 | 19:06.63 | 2:40.45 | 86013 | 98057  
  8 | 21:47.33 | 3:59.21 | 98058 | 116003  
  9 | 25:46.54 | 5:24.72 | 116004 | 140375  
  10 | 31:11.51 | 4:03.50 | 140376 | 158650  
  11 | 35:15.26 | 3:23.55 | 158651 | 173930  
  12 | 38:39.06 | 3:24.59 | 173931 | 189289  
  13 | 42:03.65 | 5:38.32 | 189290 | 214671  
  14 | 47:42.22 | 5:41.40 | 214672 | 240286  
  15 | 53:23.62 | 4:26.17 | 240287 | 260253  
  16 | 57:50.04 | 4:04.52 | 260254 | 278605  

Характеристики диапазона извлечения и сообщения об ошибках

Выбранный диапазон

  Имя файла G:\FLAC\Master Fury - Circles Of Hell [Compilaton].wav

  Пиковый уровень 98.8 %
  Скорость извлечения 2.5 X
  Качество диапазона 99.9 %
  CRC теста 286323D8
  CRC копии 286323D8
  Копирование... OK

Ошибок не произошло

   
AccurateRip: сводка
   
Трек 1 отсутствует в базе данных
Трек 2 отсутствует в базе данных
Трек 3 отсутствует в базе данных
Трек 4 отсутствует в базе данных
Трек 5 отсутствует в базе данных
Трек 6 отсутствует в базе данных
Трек 7 отсутствует в базе данных
Трек 8 отсутствует в базе данных
Трек 9 отсутствует в базе данных
Трек 10 отсутствует в базе данных
Трек 11 отсутствует в базе данных
Трек 12 отсутствует в базе данных
Трек 13 отсутствует в базе данных
Трек 14 отсутствует в базе данных
Трек 15 отсутствует в базе данных
Трек 16 отсутствует в базе данных
   
Ни одного трека нет в базе AccurateRip

Конец отчёта
Категория: Lossless | Добавил: chest86 | (e-mail отправителя)
Просмотров: 597 | Комментарии: 1 | Рейтинг: 0.0/0 | |
Copyright Thrash Metal Attack © 2018
Rambler's Top100