<img src="http://counter.rambler.ru/top100.cnt?1633246" alt="" width="1" height="1" border="0"/>
Ваш логин:Гость
Ваше имя:Гость
Ваша група:Гости
Ваш IP адрес:54.221.9.6
У вас нет непрочитанных сообщений
Форма входа
Логин:
Пароль:
Menu







Search

Поиск по названиям

Контекстный поиск

Catalog Categories
MP3 320 kbps [1655]MP3 < 320 kbps [316]
Lossless [61]
Мини-чат
Форма входа
Логин:
Пароль:

Каталог Альбомов
Главная » Файлы » » Lossless[ Добавить альбом ]

Zona Negra - Por Tu Misma Patria


Если ссылка "мертва", то сообщите об этом в ЛС

03.09.2010, 19:42

Жанр: Thrash Metal

Исполнитель: Zona Negra

Альбом: Por Tu Misma Patria

Год: 2007

Страна: Argentina

Формат/Битрейт: Lossless/CD-Image (ape+cue)

Плейлист:
01 - Por Tu Misma Patria
02 - Esoerando El Dia
03 - Reiterada Desdicha
04 - Sobre Mi
05 - Por Gritar Verdades
06 - Habitad Enferma
07 - Interiores Nuestros
08 - Silencio De Muerte
09 - Envenenando
10 - Profetas De Nadie

Code
Exact Audio Copy V0.99 prebeta 4 from 23. January 2008

EAC extraction logfile from 17. May 2009, 13:21

Zonanegra / Por Tu Misma Patria

Used drive : Optiarc DVD RW AD-7190A Adapter: 1 ID: 0

Read mode : Secure
Utilize accurate stream : Yes
Defeat audio cache : Yes
Make use of C2 pointers : No

Read offset correction : 102
Overread into Lead-In and Lead-Out : No
Fill up missing offset samples with silence : Yes
Delete leading and trailing silent blocks : No
Null samples used in CRC calculations : Yes
Used interface : Native Win32 interface for Win NT & 2000

Used output format : Monkey's Audio Lossless Encoder
Selected bitrate : High Lossless Compression
Quality : High
Add ID3 tag : Yes
Command line compressor : C:\Archivos de programa\Exact Audio Copy\MAC.EXE

TOC of the extracted CD

  Track | Start | Length | Start sector | End sector  
  ---------------------------------------------------------
  1 | 0:00.00 | 4:23.16 | 0 | 19740  
  2 | 4:23.16 | 3:49.33 | 19741 | 36948  
  3 | 8:12.49 | 3:39.64 | 36949 | 53437  
  4 | 11:52.38 | 3:46.25 | 53438 | 70412  
  5 | 15:38.63 | 4:23.40 | 70413 | 90177  
  6 | 20:02.28 | 3:59.08 | 90178 | 108110  
  7 | 24:01.36 | 3:16.29 | 108111 | 122839  
  8 | 27:17.65 | 3:17.69 | 122840 | 137683  
  9 | 30:35.59 | 3:24.00 | 137684 | 152983  
  10 | 33:59.59 | 10:57.18 | 152984 | 202276  

Range status and errors

Selected range

  Filename C:\Documents and Settings\Usuario\Escritorio\ZONANEGRA [2007] [CD] POR TU MISMA PATRIA [EAC-APE] BY ALASCHAPAS [MeTaLMaDNeSS. TeaM]\Zonanegra - Por Tu Misma Patria.wav

  Peak level 100.0 %
  Range quality 99.9 %
  Copy CRC 0170EEB1
  Copy OK

No errors occurred

End of status report
Категория: Lossless | Добавил: Dash | (e-mail отправителя)
Просмотров: 1278 | Комментарии: 0 | Рейтинг: 0.0/0 | |
Copyright Thrash Metal Attack © 2018
Rambler's Top100